查看: 209|回复: 13

【EX8】[名侦探柯南剧场版M21][殷红的恋歌唐红的恋歌][BDRip][简体][1080P]

[复制链接]

4万

主题

4万

帖子

20002万

威望
发表于 2017-10-22 04:01:54 | 显示全部楼层 |阅读模式
Complete name         : [EX8][Detective Conan.M21][ka ra ku re na i no love letter][BD][GB][1080P].mp4Format            : MPEG-4Format profile        : Base MediaCodec ID           : isom (isom)File size           : 1.50 GiBDuration           : 1 h 52 minOverall bit rate mode     : VariableOverall bit rate       : 1 918 kb/sEncoded date         :Tagged date          :VideoID              : 1Format            : AVCFormat/Info          : Advanced Video CodecFormat profile        : [email protected]Format settings, CABAC    : YesFormat settings, RefFrames  : 4 framesCodec ID           : avc1Codec ID/Info         : Advanced Video CodingDuration           : 1 h 52 minBit rate           : 1 657 kb/sMaximum bit rate       : 23.4 Mb/sWidth             : 1 920 pixelsHeight            : 1 080 pixelsDisplay aspect ratio     : 16:9Frame rate mode        : VariableFrame rate          : 23.976 (24000/1001) FPSMinimum frame rate      : 23.810 FPSMaximum frame rate      : 24.390 FPSColor space          : YUVChroma subsampling      : 4:2:0Bit depth           : 8 bitsScan type           : ProgressiveBits/(Pixel*Frame)      : 0.033Stream size          : 1.30 GiB (86%)Writing library        : x264 core 148 r2721+46 0c4b09a xiaowan [[email protected] X86_64]Encoding settings       : cabac=1 / ref=4 / deblock=1:1:1 / analyse=0x3:0x133 / me=umh / subme=10 / psy=1 / fade_compensate=0.00 / psy_rd=0.30:0.00 / mixed_ref=1 / me_range=24 / chroma_me=1 / trellis=2 / 8x8dct=1 / cqm=0 / deadzone=21,11 / fast_pskip=1 / chroma_qp_offset=-2 / threads=16 / lookahead_threads=1 / sliced_threads=0 / nr=0 / decimate=1 / interlaced=0 / bluray_compat=0 / constrained_intra=0 / fgo=0 / bframes=3 / b_pyramid=2 / b_adapt=2 / b_bias=0 / direct=3 / weightb=1 / open_gop=0 / weightp=2 / keyint=240 / keyint_min=1 / scenecut=60 / intra_refresh=0 / rc_lookahead=60 / rc=crf / mbtree=1 / crf=22.5000 / qcomp=0.50 / qpmin=0:0:0 / qpmax=69:69:69 / qpstep=4 / ip_ratio=1.40 / aq=2:0.80 / aq-sensitivity=10.00 / aq-factor=1.00:1.00:1.00 / aq2=0 / aq3=0Encoded date         :Tagged date          :Color range          : LimitedMatrix coefficients      :AudioID              : 2Format            : AACFormat/Info          : Advanced Audio CodecFormat profile        : LCCodec ID           : 40Duration           : 1 h 52 minBit rate mode         : VariableBit rate           : 256 kb/sMaximum bit rate       : 278 kb/sChannel(s)          : 6 channelsChannel positions       : Front: L C R, Side: L R, LFESampling rate         : 48.0 kHzFrame rate          : 46.875 FPS (1024 SPF)Compression mode       : LossyStream size          : 206 MiB (13%)Encoded date         :Tagged date          :
磁力链接♂下载地址(如果没有下载地址或失效请点击这里举报):
游客,如果您要查看本帖隐藏内容请回复浏览或充值VIP会员即可免回复浏览

本站所有内容资源均来自网络&网友分享,仅供学习试用。如侵犯您的权益请告知。
c.c动漫永远欢迎您 感谢您的支持
回复

使用道具 举报

0

主题

203

帖子

3739

威望

C.C

发表于 2017-10-22 11:07:11 | 显示全部楼层
趁着还没封 赶紧下吧
回复 支持 反对

使用道具 举报

0

主题

1

帖子

1

威望
发表于 2017-10-22 19:19:19 | 显示全部楼层
谢谢分享,希望能下载
回复 支持 反对

使用道具 举报

0

主题

3

帖子

8

威望

C.C

发表于 2017-10-22 20:46:51 | 显示全部楼层
希望这是声音没问题的
回复 支持 反对

使用道具 举报

0

主题

2

帖子

2

威望

C.C

发表于 2017-10-22 21:38:08 | 显示全部楼层
新出的?好快啊
回复 支持 反对

使用道具 举报

0

主题

1

帖子

1

威望

C.C

发表于 2017-10-25 03:31:16 | 显示全部楼层
谢谢分享
回复 支持 反对

使用道具 举报

0

主题

18

帖子

9

威望
发表于 2017-10-30 12:51:11 | 显示全部楼层
非常感谢分享 ~赶紧下先~
回复 支持 反对

使用道具 举报

0

主题

1

帖子

1

威望

C.C

发表于 2017-10-30 14:30:10 | 显示全部楼层
感谢楼主的资源
回复 支持 反对

使用道具 举报

0

主题

2

帖子

2

威望
发表于 2017-11-3 20:13:46 | 显示全部楼层

感谢楼主的资源,灰常感谢!!!
回复 支持 反对

使用道具 举报

0

主题

1

帖子

1

威望

C.C

发表于 2017-11-4 16:20:45 | 显示全部楼层
想看想看想看想看想看想看想看想看想看想看
回复 支持 反对

使用道具 举报

0

主题

1

帖子

1

威望

C.C

发表于 2017-11-4 20:28:36 | 显示全部楼层
感谢楼主分享,顶贴支持~
回复 支持 反对

使用道具 举报

0

主题

1

帖子

1

威望

C.C

发表于 2017-11-4 22:15:00 来自手机 | 显示全部楼层
感谢分享感谢分享~~
回复 支持 反对

使用道具 举报

guest
welcomelogin
您需要登录后才可以回帖 登录 | 注册会员 用百度帐号登录

本版积分规则

C.c动漫社 - CC动漫|动漫壁纸|新番在线|动漫下载(-ω-`)

反馈

投诉举报 意见反馈 用户协议 论坛规则

反馈须知: 切勿滥用举报,任何与举报相关的信息必须属实!

网站资源

  • 客户端
  • 微信
  • 微博

QQ|客服电话|触屏版|手机客户端|版权声明|小黑屋|C.c动漫社  

JS of wanmeiff.com and vcpic.com Please keep this copyright information, respect of, thank you!JS of wanmeiff.com and vcpic.com Please keep this copyright information, respect of, thank you!

C.c动漫社 - CC动漫|动漫壁纸|新番在线|动漫下载(-ω-`) ICP15003530-4

站长声明:本站大多数内容及资源来自网友自购分享,仅供汉化学习试用,请于下载后24小时内删除(虽然你删没删除我也不知道),另外请积极支持购买正版内容(你硬要白嫖我也管不着)
本站资源仅供试看禁止用于商业行为(虽然你用了我也拿你没办法)。若因私自传播造成法律问题本站概不负责(叫我负责我也负不起),如侵犯您的权益请告知,联系我QQ1030207052删除。

快速回复 返回顶部 返回列表